<?xml version="1.0" standalone="no"?>
<!DOCTYPE svg PUBLIC "-//W3C//DTD SVG 1.1//EN" "http://www.w3.org/Graphics/SVG/1.1/DTD/svg11.dtd" >
<svg xmlns="http://www.w3.org/2000/svg">
<metadata>
This is a custom SVG webfont generated by Font Squirrel.
Copyright   :  199091 Apple Computer Inc  199091 Type Solutions Inc  199091 The Font Bureau Inc
</metadata>
<defs>
<font id="webfontyFRf53FT" horiz-adv-x="1229" >
<font-face units-per-em="2048" ascent="1638" descent="-410" />
<missing-glyph horiz-adv-x="500" />
<glyph unicode=" " />
<glyph unicode="!" d="M529 442l-46 1110h248l-47 -1110h-155zM615 -47q-59 0 -101.5 42.5t-42.5 101.5t42.5 101t101.5 42q58 0 100.5 -41.5t42.5 -101.5t-43 -102t-100 -42z" />
<glyph unicode="&#x22;" d="M465 1055h-128l-64 559h249zM896 1055h-127l-57 559h244z" />
<glyph unicode="#" d="M71 419v140h196l110 411h-306v139h341l117 443h146l-117 -443h283l122 443h146l-120 -443h168v-139h-207l-109 -411h316v-140h-355l-114 -419h-148l116 419h-279l-110 -419h-148l111 419h-159zM414 559h280l113 411h-286z" />
<glyph unicode="$" d="M580 -155v157q-67 0 -139 7t-135 21.5t-145 51.5v192q66 -34 129.5 -58t134 -38t155.5 -20v557l-107 58q-304 163 -304 394q0 123 101 239.5t310 134.5v166h140v-166q118 0 279 -41v-173l-35 10q-151 42 -244 51v-544l112 -64q158 -91 216.5 -179t58.5 -187 q0 -89 -44.5 -172.5t-127.5 -143.5t-215 -83v-170h-140zM580 928v462q-101 -23 -155.5 -76t-54.5 -124q0 -67 46.5 -128.5t163.5 -133.5zM720 632v-460q109 39 147.5 95.5t38.5 126.5q0 68 -38 116.5t-148 121.5z" />
<glyph unicode="%" d="M314 1552q145 0 227.5 -108t82.5 -280q0 -173 -82.5 -280.5t-227.5 -107.5t-228 107.5t-83 280.5q0 172 83 280t228 108zM314 1427q-81 0 -118 -77.5t-37 -185.5q0 -109 37 -186.5t118 -77.5q80 0 117.5 77.5t37.5 186.5q0 108 -37.5 185.5t-117.5 77.5zM166 -47h-164 l1061 1645h165zM912 776q139 0 226 -104t87 -268q0 -189 -92 -296.5t-223 -107.5q-128 0 -217 102.5t-89 285.5q0 174 84 281t224 107zM915 652q-79 0 -117 -76t-38 -194q0 -131 46 -194.5t108 -63.5q66 0 111 69t45 199q0 102 -37.5 181t-117.5 79z" />
<glyph unicode="&#x26;" d="M881 130q-99 -104 -195.5 -140.5t-208.5 -36.5q-214 0 -344.5 121t-130.5 309q0 263 274 491q-82 103 -123.5 192.5t-41.5 166.5q0 93 49 181t135 136t190 48q138 0 231 -74t93 -212q0 -101 -56.5 -202t-234.5 -236l354 -436q15 50 19.5 82t7.5 117t3 105v49h186v-47 q0 -66 -14 -189.5t-84 -262.5l238 -292h-238zM421 992q101 71 160 155.5t59 152.5q0 65 -41.5 111.5t-129.5 46.5q-76 0 -124 -56t-48 -137q0 -45 12 -91.5t90 -151.5zM778 254l-405 498q-190 -164 -190 -354q0 -130 87 -210t211 -80q66 0 133 23t164 123z" />
<glyph unicode="'" d="M683 993h-134l-105 621h341z" />
<glyph unicode="(" d="M1072 -372q-277 17 -467 156.5t-303.5 376.5t-113.5 475t113.5 475t303.5 376.5t467 157.5v-156q-209 -19 -359.5 -140.5t-236.5 -309.5t-86 -403t86 -403t236.5 -309t359.5 -141v-155z" />
<glyph unicode=")" d="M157 1645q277 -18 467 -157.5t303.5 -376.5t113.5 -475t-113.5 -475t-303.5 -376.5t-467 -156.5v155q209 20 359.5 141t237 309t86.5 403t-86.5 403t-237 309.5t-359.5 140.5v156z" />
<glyph unicode="*" d="M519 659l21 347l-283 -190l-93 162l307 150l-307 152l93 159l283 -189l-21 348h188l-26 -348l289 189l94 -159l-308 -152l308 -150l-94 -162l-289 190l26 -347h-188z" />
<glyph unicode="+" d="M1157 621v-156h-465v-465h-156v465h-465v156h465v465h156v-465h465z" />
<glyph unicode="," d="M424 -434v124q72 19 109.5 54.5t60 90t22.5 131.5q-93 0 -137 52.5t-44 112.5q0 69 49 116.5t114 47.5q84 0 145 -72.5t61 -198.5q0 -110 -48 -207.5t-130.5 -166.5t-201.5 -84z" />
<glyph unicode="-" d="M227 551v155h776v-155h-776z" />
<glyph unicode="." d="M614 -47q-67 0 -115 48t-48 115q0 68 48.5 115.5t114.5 47.5t114.5 -47.5t48.5 -115.5q0 -67 -48 -115t-115 -48z" />
<glyph unicode="/" d="M216 -47h-183l987 1645h177z" />
<glyph unicode="0" d="M614 1598q265 0 404 -222.5t139 -599.5q0 -378 -139 -600.5t-404 -222.5q-264 0 -403.5 222.5t-139.5 600.5q0 377 139.5 599.5t403.5 222.5zM311 444l537 841q-51 93 -110.5 125.5t-123.5 32.5q-167 0 -254 -185.5t-87 -470.5q0 -65 4 -140t34 -203zM915 1100l-533 -846 q43 -73 99 -109.5t125 -36.5q190 0 270 212.5t80 471.5q0 160 -41 308z" />
<glyph unicode="1" d="M568 155v1198q-84 -67 -163 -114t-217 -96v168q219 93 380 241h186v-1397h373v-155h-939v155h380z" />
<glyph unicode="2" d="M1088 0h-939v171q0 66 27 141.5t103 169.5t161 181l106 108q32 33 140 153t142.5 184t34.5 126q0 100 -80 154.5t-180 54.5q-57 0 -127.5 -13t-123.5 -30.5t-172 -71.5v165q126 60 252.5 82.5t208.5 22.5q121 0 222.5 -39.5t151 -122.5t49.5 -177q0 -105 -63.5 -215 t-239.5 -283l-114 -113l-96 -94q-91 -92 -147 -178t-62 -205h746v-171z" />
<glyph unicode="3" d="M145 28v196q229 -116 397 -116q154 0 254.5 93.5t100.5 240.5q0 148 -110.5 241t-375.5 93h-103v155h143q195 0 282 87.5t87 194.5q0 97 -71 163.5t-218 66.5q-165 0 -355 -93v177q190 71 348 71q283 0 390.5 -111.5t107.5 -254.5q0 -106 -57 -199t-210 -166 q135 -40 204 -98t104.5 -137t35.5 -177q0 -218 -161.5 -360t-417.5 -142q-74 0 -161.5 11t-213.5 64z" />
<glyph unicode="4" d="M707 0v434h-659v156l659 962h187v-962h287v-156h-287v-434h-187zM707 590v680l-461 -680h461z" />
<glyph unicode="5" d="M188 807v745h869v-179h-683v-380h32q335 0 516 -140t181 -377q0 -150 -73 -269t-206 -186.5t-283 -67.5t-384 73v203q85 -46 190 -75.5t194 -29.5t174 43t132 125.5t47 168.5q0 145 -128.5 245.5t-456.5 100.5h-121z" />
<glyph unicode="6" d="M292 728q72 107 178.5 174.5t234.5 67.5q121 0 229.5 -59t165.5 -164.5t57 -245.5q0 -221 -141.5 -384.5t-372.5 -163.5q-272 0 -406.5 227.5t-134.5 578.5q0 388 171 613.5t463 225.5q157 0 305 -46v-188q-166 79 -313 79q-208 0 -322 -191t-114 -484v-40zM657 108 q75 0 151 44.5t119.5 137t43.5 201.5q0 142 -73.5 233t-209.5 91q-141 0 -231.5 -105.5t-90.5 -256.5q0 -152 88.5 -248.5t202.5 -96.5z" />
<glyph unicode="7" d="M319 0v139q0 163 37 274t130 247t149 210l162 214l58 75q66 89 114 206h-805v187h985v-124q0 -74 -29.5 -137t-178.5 -269l-71 -98l-104 -146q-100 -141 -148 -225t-72.5 -175t-24.5 -239v-139h-202z" />
<glyph unicode="8" d="M459 837l-34 25q-71 50 -139 147.5t-68 214.5q0 155 122 264.5t310 109.5q115 0 207 -41.5t142 -122.5t50 -177q0 -66 -23 -127.5t-68.5 -122t-180.5 -170.5l84 -67q147 -120 198 -207t51 -195q0 -168 -122 -291.5t-366 -123.5q-245 0 -367 115.5t-122 286.5 q0 255 326 482zM650 932q141 107 176.5 179t35.5 134q0 75 -66 136.5t-170 61.5q-112 0 -170.5 -67t-58.5 -139q0 -70 49 -132t157 -139zM599 738q-264 -203 -264 -380q0 -105 87 -177t206 -72q109 0 195 69t86 172q0 101 -104.5 205t-145.5 136z" />
<glyph unicode="9" d="M936 824q-72 -107 -178.5 -174.5t-234.5 -67.5q-121 0 -229.5 58.5t-165.5 164.5t-57 246q0 220 141.5 383.5t372.5 163.5q272 0 406.5 -227.5t134.5 -578.5q0 -388 -171 -613.5t-463 -225.5q-157 0 -305 47v187q166 -78 313 -78q208 0 322 191t114 484v40zM571 1443 q-75 0 -151 -44.5t-119.5 -136.5t-43.5 -202q0 -141 73.5 -232t209.5 -91q141 0 231.5 105.5t90.5 255.5q0 152 -88.5 248.5t-202.5 96.5z" />
<glyph unicode=":" d="M614 -47q-67 0 -115 48t-48 115q0 68 48.5 115.5t114.5 47.5t114.5 -47.5t48.5 -115.5q0 -67 -48 -115t-115 -48zM614 822q-67 0 -115 48t-48 115q0 68 48.5 115.5t114.5 47.5t114.5 -47.5t48.5 -115.5q0 -67 -48 -115t-115 -48z" />
<glyph unicode=";" d="M424 -434v124q72 19 109.5 54.5t60 90t22.5 131.5q-93 0 -137 52.5t-44 112.5q0 69 49 116.5t114 47.5q84 0 145 -72.5t61 -198.5q0 -110 -48 -207.5t-130.5 -166.5t-201.5 -84zM598 822q-67 0 -115 48t-48 115q0 68 48.5 115.5t114.5 47.5t114.5 -47.5t48.5 -115.5 q0 -67 -48 -115t-115 -48z" />
<glyph unicode="&#x3c;" d="M71 543l1086 543v-173l-742 -369l742 -373v-171z" />
<glyph unicode="=" d="M1157 791v-155h-1086v155h1086zM1157 442v-155h-1086v155h1086z" />
<glyph unicode="&#x3e;" d="M1157 543l-1086 -543v173l743 369l-743 373v171z" />
<glyph unicode="?" d="M401 442v35q0 83 14 138.5t53.5 115t118.5 143.5l62 66q18 19 52 62l66 83q84 104 84 180q0 70 -60 124t-195 54q-87 0 -177.5 -23.5t-211.5 -91.5v180q185 90 387 90q224 0 341.5 -91.5t117.5 -237.5q0 -144 -152 -299l-66 -68l-78 -81l-71 -73q-39 -44 -69 -101 t-30 -159v-46h-186zM503 -47q-58 0 -100.5 42.5t-42.5 101.5t42.5 101t100.5 42q59 0 101.5 -41.5t42.5 -101.5t-43 -102t-101 -42z" />
<glyph unicode="@" d="M921 200v-157q-84 -55 -149 -72.5t-140 -17.5q-208 0 -340.5 101.5t-211 283t-78.5 443.5q0 364 167 590.5t451 226.5q281 0 444.5 -200t163.5 -526q0 -144 -42 -236.5t-111 -147t-167 -54.5q-76 0 -124 33.5t-72 154.5q-28 -65 -86 -126.5t-157 -61.5 q-103 0 -170.5 93.5t-67.5 229.5q0 167 96.5 310t348.5 143h191v-438q0 -87 6.5 -123.5t27 -55.5t44.5 -19q39 0 78.5 37.5t60 106t20.5 148.5q0 167 -61 324.5t-181 224.5t-251 67q-139 0 -244.5 -83.5t-173 -250.5t-67.5 -369q0 -203 67 -376t181 -253t254 -80 q159 0 293 130zM712 809v269h-36q-118 0 -170 -37t-82 -116t-30 -174q0 -77 24 -119t66 -42q59 0 120.5 68.5t107.5 150.5z" />
<glyph unicode="A" d="M227 0h-194l478 1552h205l481 -1552h-213l-106 341h-546zM380 496h453l-187 589l-44 156l-39 -156z" />
<glyph unicode="B" d="M172 0v1552h303q273 0 365.5 -41.5t138.5 -122.5t46 -185q0 -82 -27 -155.5t-80 -134t-154 -114.5q185 -74 250.5 -182t65.5 -216q0 -103 -55.5 -200t-155.5 -149t-320 -52h-377zM374 853h212q103 43 150.5 90.5t71 106t23.5 128.5q0 110 -64.5 164t-251.5 54h-141v-543z M374 155h191q160 0 236.5 75.5t76.5 181.5q0 78 -42 143.5t-130 104t-276 38.5h-56v-543z" />
<glyph unicode="C" d="M1088 18q-174 -65 -312 -65q-182 0 -335 97.5t-238 290t-85 435.5q0 241 84 433t237 291t337 99q138 0 312 -65v-184q-161 93 -320 93q-120 0 -219.5 -82t-160.5 -240.5t-61 -344.5q0 -189 63 -349t161 -239.5t217 -79.5q158 0 320 93v-183z" />
<glyph unicode="D" d="M155 0v1552h368q254 0 377.5 -88.5t185.5 -267.5t62 -424q0 -232 -65.5 -407.5t-185.5 -270t-374 -94.5h-368zM357 171h135q205 0 292.5 73t125 202.5t37.5 357.5q0 223 -44 343t-126 184.5t-269 64.5h-151v-1225z" />
<glyph unicode="E" d="M1041 171v-171h-838v1552h822v-156h-620v-527h558v-155h-558v-543h636z" />
<glyph unicode="F" d="M227 0v1552h853v-156h-651v-527h589v-155h-589v-714h-202z" />
<glyph unicode="G" d="M1088 1q-164 -48 -301 -48q-194 0 -345.5 96t-237.5 289.5t-86 437.5q0 241 84 433t237 291t336 99q138 0 312 -65v-184q-161 93 -320 93q-120 0 -219.5 -82t-160 -240.5t-60.5 -346.5q0 -252 115 -459t363 -207q32 0 81 5v500h-155v155h357v-767z" />
<glyph unicode="H" d="M126 0v1552h202v-668h574v668h201v-1552h-201v729h-574v-729h-202z" />
<glyph unicode="I" d="M172 0v155h341v1241h-341v156h884v-156h-341v-1241h341v-155h-884z" />
<glyph unicode="J" d="M110 34v190q218 -115 365 -115q77 0 140.5 30t101 100.5t37.5 301.5v855h-349v156h551v-1016q0 -248 -56.5 -357t-158.5 -167.5t-261 -58.5q-178 0 -370 81z" />
<glyph unicode="K" d="M157 0v1552h202v-761l577 761h214l-557 -737l635 -815h-253l-616 791v-791h-202z" />
<glyph unicode="L" d="M1057 171v-171h-838v1552h202v-1381h636z" />
<glyph unicode="M" d="M219 0h-163v1552h203l358 -1022l358 1022h198v-1552h-186v989l5 136h-5l-44 -136l-240 -679h-202l-243 679l-39 136h-5l5 -136v-989z" />
<glyph unicode="N" d="M312 0h-186v1552h182l549 -1033l60 -154h5l-5 154v1033h186v-1552h-186l-534 1016l-75 163l4 -161v-1018z" />
<glyph unicode="O" d="M614 -47q-264 0 -403.5 222.5t-139.5 600.5q0 377 139.5 599.5t403.5 222.5q265 0 404 -222.5t139 -599.5q0 -378 -139 -600.5t-404 -222.5zM614 109q146 0 243.5 165.5t97.5 501.5t-97.5 501.5t-243.5 165.5t-243.5 -165.5t-97.5 -501.5t97.5 -501.5t243.5 -165.5z" />
<glyph unicode="P" d="M378 566v-566h-202v1552h386q238 0 347 -53.5t167 -156.5t58 -230q0 -149 -78 -278t-217.5 -198.5t-378.5 -69.5h-82zM378 721h87q187 0 278 48.5t140 139.5t49 197q0 134 -87.5 212t-345.5 78h-121v-675z" />
<glyph unicode="Q" d="M746 -29q70 -116 125 -161t143 -67t195 -22h18v-155h-47q-193 0 -281 40t-166 123t-142 226q-183 20 -289.5 116t-168.5 297t-62 432q0 338 135 568t408 230q264 0 403.5 -222t139.5 -601q0 -180 -36.5 -344.5t-126 -289t-248.5 -170.5zM614 1443q-146 0 -243.5 -165.5 t-97.5 -501.5t97.5 -501.5t243.5 -165.5t243.5 165.5t97.5 501.5t-97.5 501.5t-243.5 165.5z" />
<glyph unicode="R" d="M351 659v-659h-202v1552h415q203 0 299 -41.5t148.5 -125.5t52.5 -181q0 -90 -35 -181t-96.5 -162.5t-177.5 -135.5l449 -725h-240l-411 659h-202zM351 815h283q95 52 141.5 106t70.5 115t24 122q0 109 -79.5 173.5t-288.5 64.5h-151v-581z" />
<glyph unicode="S" d="M157 33v190q240 -114 436 -114q82 0 157 31.5t113.5 90.5t38.5 128q0 81 -53 151.5t-199 155.5l-102 59l-103 59q-272 161 -272 400q0 175 121.5 294.5t379.5 119.5q166 0 321 -48v-173q-171 66 -333 66q-129 0 -208.5 -68t-79.5 -164q0 -95 61 -158t156 -116l78 -47 l97 -59l82 -48q255 -156 255 -392q0 -180 -131 -309t-420 -129q-92 0 -175.5 15.5t-219.5 64.5z" />
<glyph unicode="T" d="M513 0v1381h-465v171h1133v-171h-466v-1381h-202z" />
<glyph unicode="U" d="M126 1552h202v-1019q0 -201 33.5 -274.5t103 -112t154.5 -38.5q90 0 160.5 41.5t104 130t33.5 332.5v940h186v-1013q0 -217 -64.5 -339.5t-168.5 -184.5t-262 -62q-146 0 -257 54t-168 162t-57 390v993z" />
<glyph unicode="V" d="M1003 1552h194l-478 -1552h-205l-481 1552h213l337 -1084l44 -158l39 157z" />
<glyph unicode="W" d="M208 0l-180 1552h184l106 -945l14 -157h5l20 157l163 945h184l186 -983l19 -150h5l12 151l117 982h158l-188 -1552h-191l-200 1052l-21 158h-5l-19 -158l-180 -1052h-189z" />
<glyph unicode="X" d="M258 0h-210l454 811l-410 741h229l297 -535l304 535h211l-410 -726l458 -826h-233l-341 619z" />
<glyph unicode="Y" d="M514 0v718l-462 834h229l345 -616l344 616h207l-461 -834v-718h-202z" />
<glyph unicode="Z" d="M122 0v171l737 1225h-714v156h947v-156l-736 -1225h751v-171h-985z" />
<glyph unicode="[" d="M355 -372v2017h807v-156h-621v-1706h621v-155h-807z" />
<glyph unicode="\" d="M1014 -47l-981 1645h177l987 -1645h-183z" />
<glyph unicode="]" d="M874 1645v-2017h-807v155h621v1706h-621v156h807z" />
<glyph unicode="^" d="M614 1552l543 -1087h-171l-372 747l-372 -747h-171z" />
<glyph unicode="_" d="M71 -155v155h1086v-155h-1086z" />
<glyph unicode="`" d="M832 1288h-170l-342 326h216z" />
<glyph unicode="a" d="M889 251q-85 -140 -204.5 -211t-219.5 -71q-140 0 -251.5 121t-111.5 367q0 194 74 346.5t198 241t307 88.5q53 0 160 -11q16 -2 48 -5h187v-789q0 -202 42 -328h-194q-22 92 -35 251zM889 472v479q-99 26 -184 26q-172 0 -286.5 -133t-114.5 -362q0 -166 62.5 -250.5 t142.5 -84.5q87 0 192 88t188 237z" />
<glyph unicode="b" d="M327 866q86 140 205 211t219 71q140 0 252 -121t112 -367q0 -194 -74.5 -346.5t-198.5 -241t-307 -88.5q-52 0 -160 11q-16 2 -48 5h-186v1614h186v-748zM327 645v-479q101 -26 186 -26q169 0 284.5 132.5t115.5 362.5q0 167 -63 251t-143 84q-87 0 -191.5 -88 t-188.5 -237z" />
<glyph unicode="c" d="M1095 32q-187 -63 -356 -63q-168 0 -298.5 77.5t-203.5 210t-73 301.5q0 254 165.5 422t399.5 168q173 0 366 -65v-179q-195 89 -349 89q-102 0 -192 -50.5t-139 -157.5t-49 -220q0 -151 94.5 -288t296.5 -137q61 0 120 8.5t218 62.5v-179z" />
<glyph unicode="d" d="M901 251q-85 -140 -204.5 -211t-219.5 -71q-140 0 -251.5 121t-111.5 367q0 194 74 346.5t198 241t307 88.5q53 0 160 -11q16 -2 48 -5v497h187v-1614h-187v251zM901 472v479q-99 26 -184 26q-172 0 -286.5 -133t-114.5 -362q0 -166 62.5 -250.5t142.5 -84.5q87 0 192 88 t188 237z" />
<glyph unicode="e" d="M1084 74q-223 -106 -422 -106q-151 0 -270 75t-190.5 214.5t-71.5 298.5q0 153 68 294t190 219.5t272 78.5q199 0 319.5 -142t120.5 -438v-40h-770q0 -116 48.5 -212t127.5 -144t180 -48q180 0 398 120v-170zM341 667h557v27q0 137 -67 218t-179 81q-113 0 -195.5 -82.5 t-115.5 -243.5z" />
<glyph unicode="f" d="M415 0v869h-248v155h248v52q0 221 50 327t154.5 174t276.5 68q130 0 264 -27v-177q-145 48 -257 48q-89 0 -157 -33t-106.5 -107.5t-38.5 -252.5v-72h443v-155h-443v-869h-186z" />
<glyph unicode="g" d="M901 251q-85 -140 -204.5 -211t-219.5 -71q-140 0 -251.5 121t-111.5 367q0 194 74 346.5t198 241t307 88.5q53 0 160 -11q16 -2 48 -5h187v-790q0 -282 -7.5 -344.5t-24.5 -126.5q-40 -149 -182.5 -235t-344.5 -86q-203 0 -411 104v188q79 -54 194.5 -95.5t223.5 -41.5 q85 0 161 27t123 78t64 118.5t17 179.5v158zM901 472v479q-99 26 -184 26q-172 0 -286.5 -133t-114.5 -362q0 -166 62.5 -250.5t142.5 -84.5q87 0 192 88t188 237z" />
<glyph unicode="h" d="M155 0v1614h186v-741q80 129 193 202t226 73q95 0 173.5 -48.5t109.5 -117.5q25 -53 34 -112.5t9 -245.5v-624h-186v647q0 161 -15.5 212.5t-57 84.5t-90.5 33q-98 0 -210.5 -93t-185.5 -233v-651h-186z" />
<glyph unicode="i" d="M468 0v962h-310v155h496v-962h311v-155h-497zM437 1520q0 63 43 94t81 31q39 0 82 -31t43 -94q0 -62 -43 -93t-82 -31q-38 0 -81 31t-43 93z" />
<glyph unicode="j" d="M172 -438v174q156 -46 263 -46q93 0 158 32.5t101.5 109.5t36.5 268v862h-474v155h660v-982q0 -284 -67 -394.5t-162 -158.5t-260 -48q-119 0 -256 28zM700 1520q0 63 42.5 94t81.5 31t81.5 -31t42.5 -94q0 -62 -42.5 -93t-81.5 -31t-81.5 31t-42.5 93z" />
<glyph unicode="k" d="M205 0v1614h186v-1014l537 517h248l-536 -517l550 -600h-256l-543 600v-600h-186z" />
<glyph unicode="l" d="M455 0v1458h-334v156h520v-1459h349v-155h-535z" />
<glyph unicode="m" d="M71 0v1117h163v-256q77 163 143.5 225t134.5 62q81 0 130.5 -63.5t49.5 -180.5v-60q33 102 79.5 165.5t96.5 101t115 37.5q72 0 123 -61t51 -243v-844h-163v763q0 94 -6 128.5t-24 52.5t-39 18q-52 0 -111.5 -79.5t-121.5 -263.5v-619h-156v762q0 148 -29 174t-52 26 q-51 0 -109.5 -89t-111.5 -228v-645h-163z" />
<glyph unicode="n" d="M155 0v1117h186v-244q80 129 193 202t226 73q99 0 180 -52.5t113.5 -137.5t32.5 -334v-624h-186v647q0 161 -15.5 212.5t-57 84.5t-90.5 33q-98 0 -210.5 -93t-185.5 -233v-651h-186z" />
<glyph unicode="o" d="M615 -31q-240 0 -384 167.5t-144 422.5t144 422t384 167q239 0 383 -167t144 -422t-144 -422.5t-383 -167.5zM615 124q149 0 237 116t88 319q0 202 -88 318t-237 116q-150 0 -238 -116t-88 -318q0 -203 88 -319t238 -116z" />
<glyph unicode="p" d="M327 866q86 140 205 211t219 71q140 0 252 -121t112 -367q0 -194 -74.5 -346.5t-198.5 -241t-307 -88.5q-52 0 -160 11q-16 2 -48 5v-434h-186v1551h186v-251zM327 645v-479q101 -26 186 -26q169 0 284.5 132.5t115.5 362.5q0 167 -63 251t-143 84q-87 0 -191.5 -88 t-188.5 -237z" />
<glyph unicode="q" d="M901 251q-85 -140 -204.5 -211t-219.5 -71q-140 0 -251.5 121t-111.5 367q0 194 74 346.5t198 241t307 88.5q53 0 160 -11q16 -2 48 -5h187v-1551h-187v685zM901 472v479q-99 26 -184 26q-172 0 -286.5 -133t-114.5 -362q0 -166 62.5 -250.5t142.5 -84.5q87 0 192 88 t188 237z" />
<glyph unicode="r" d="M250 0v1117h186v-244q87 138 199.5 206.5t250.5 68.5q101 0 202 -31v-403h-179v255q-47 8 -74 8q-104 0 -204 -82t-195 -246v-649h-186z" />
<glyph unicode="s" d="M168 59v197q112 -73 237 -102.5t212 -29.5q141 0 203 45.5t62 113.5q0 45 -29 77t-144 79l-64 26l-129 51q-208 81 -262.5 149.5t-54.5 166.5q0 138 106.5 227t345.5 89q179 0 339 -52v-169q-184 66 -346 66q-118 0 -184.5 -41.5t-66.5 -103.5q0 -60 57.5 -96t186.5 -83 l126 -46q173 -63 243 -137t70 -185q0 -145 -111.5 -238.5t-356.5 -93.5q-214 0 -440 90z" />
<glyph unicode="t" d="M1089 45q-131 -55 -190 -65.5t-114 -10.5q-117 0 -214 45t-146.5 133t-49.5 272v450h-279v155h279v450h186v-450h497v-155h-497v-447q0 -135 32 -190.5t85.5 -81.5t126.5 -26q135 0 284 85v-164z" />
<glyph unicode="u" d="M1074 1117v-1117h-186v245q-90 -138 -200 -207t-220 -69q-98 0 -179.5 52.5t-113.5 138t-32 333.5v624h186v-647q0 -161 15.5 -212.5t57 -84.5t89.5 -33q98 0 210.5 92.5t186.5 233.5v651h186z" />
<glyph unicode="v" d="M518 0l-485 1117h204l383 -884l391 884h186l-489 -1117h-190z" />
<glyph unicode="w" d="M202 0l-182 1117h173l106 -680l28 -158l27 158l178 680h167l201 -680l35 -158l23 158l107 680h143l-181 -1117h-174l-214 719l-34 158h-5l-31 -157l-186 -720h-181z" />
<glyph unicode="x" d="M271 0h-215l439 585l-410 532h238l291 -375l283 375h211l-388 -514l461 -603h-239l-340 445z" />
<glyph unicode="y" d="M566 45l-516 1072h205l411 -838l344 838h187l-433 -1038q-137 -329 -260.5 -437t-319.5 -108q-85 0 -152 15v164q77 -24 147 -24q90 0 160 35t128 124t82 154z" />
<glyph unicode="z" d="M133 0v171l685 791h-669v155h915v-155l-690 -791h713v-171h-954z" />
<glyph unicode="{" d="M547 636q93 -49 136.5 -96t65 -96.5t21.5 -113.5q0 -57 -20 -149l-25 -114q-20 -93 -20 -138q0 -61 47.5 -103.5t195.5 -42.5h155v-155h-157q-274 0 -353 88t-79 199q0 59 15 127l18 80l17 87l12 53q7 37 7 72q0 93 -62.5 159t-220.5 66h-89v155h89q156 0 219.5 65 t63.5 162q0 36 -7 70l-12 52l-17 87l-18 80q-15 69 -15 128q0 110 79 198.5t353 88.5h157v-156h-155q-147 0 -195 -42.5t-48 -104.5q0 -44 20 -137l25 -114q20 -92 20 -149q0 -64 -21.5 -113.5t-65 -96.5t-136.5 -96z" />
<glyph unicode="|" d="M533 -47v1645h163v-1645h-163z" />
<glyph unicode="}" d="M682 636q-93 49 -136.5 96t-64.5 96.5t-21 113.5q0 57 19 149l25 114q20 93 20 138q0 61 -47.5 103.5t-195.5 42.5h-155v156h157q274 0 353.5 -88.5t79.5 -198.5q0 -60 -16 -128l-18 -80l-17 -87l-12 -52q-7 -38 -7 -73q0 -92 62.5 -158t220.5 -66h89v-155h-89 q-156 0 -219.5 -65.5t-63.5 -162.5q0 -35 7 -69l12 -53l17 -87l18 -80q16 -69 16 -128q0 -111 -79.5 -198.5t-353.5 -87.5h-157v155h155q148 0 195.5 42.5t47.5 104.5q0 44 -20 137l-25 114q-19 92 -19 149q0 64 21 113.5t64.5 96.5t136.5 96z" />
<glyph unicode="~" d="M56 403v18q0 131 77.5 227.5t208.5 96.5q33 0 64.5 -6.5t71.5 -22t120 -60.5l121 -67q111 -61 181 -61q74 0 109.5 53.5t35.5 116.5v16h128v-16q0 -167 -94.5 -246.5t-200.5 -79.5q-99 0 -262 93l-102 59q-116 66 -187 66q-40 0 -74.5 -21t-55.5 -67t-21 -81v-18h-120z " />
<glyph unicode="&#xa0;" />
<glyph unicode="&#xa1;" d="M700 659l46 -1109h-248l47 1109h155zM615 1148q56 0 99.5 -43t43.5 -100q0 -58 -43.5 -101t-99.5 -43q-57 0 -100.5 43t-43.5 101q0 57 43.5 100t100.5 43z" />
<glyph unicode="&#xa2;" d="M607 -155v346q-149 18 -255.5 96t-170 200.5t-63.5 278.5t59 277t163.5 201t266.5 109v354h155v-354q166 -19 287 -56v-179q-36 21 -80 37t-93 29t-114 19v-866q80 9 123 21t130 52q12 6 34 16v-180q-149 -49 -287 -55v-346h-155zM607 345v850q-154 -48 -220.5 -165 t-66.5 -265q0 -126 60 -249.5t227 -170.5z" />
<glyph unicode="&#xa3;" d="M141 0v171q93 21 136.5 62.5t66 121t22.5 202.5v211h-225v155h225v69q0 266 51 380t145 170t225 56q124 0 262 -58v-180q-158 83 -284 83q-57 0 -109.5 -37.5t-78 -114.5t-25.5 -289v-79h326v-155h-326v-117q0 -187 -22 -284.5t-128 -195.5h709v-171h-970z" />
<glyph unicode="&#xa4;" d="M1042 1381l115 -101l-184 -212q73 -102 89 -164.5t16 -129.5q0 -68 -16 -131.5t-89 -165.5l184 -211l-115 -95l-185 206q-91 -48 -142.5 -57.5t-100.5 -9.5t-100.5 9.5t-142.5 57.5l-185 -206l-115 95l184 211q-73 102 -89 165.5t-16 131.5q0 67 16 129.5t89 164.5 l-184 212l115 101l185 -211q88 54 143.5 62.5t99.5 8.5t99.5 -8.5t143.5 -62.5zM614 465q119 0 213.5 86.5t94.5 218.5q0 86 -41.5 160.5t-116.5 115t-150 40.5t-150 -40.5t-116.5 -115t-41.5 -160.5q0 -132 94.5 -218.5t213.5 -86.5z" />
<glyph unicode="&#xa5;" d="M522 0v248h-326v140h326v194h-326v139h317l-461 831h205l367 -642l368 642h185l-469 -831h318v-139h-318v-194h318v-140h-318v-248h-186z" />
<glyph unicode="&#xa7;" d="M149 -301v201q102 -55 218.5 -86t210.5 -31q149 0 228.5 61t79.5 131q0 58 -39.5 101.5t-170.5 117.5l-147 83q-196 110 -276.5 209t-80.5 208q0 163 145 296q-64 48 -96.5 109.5t-32.5 136.5q0 97 55.5 180t156.5 132.5t258 49.5q148 0 337 -57v-178q-61 32 -164.5 56 t-181.5 24q-136 0 -198 -54t-62 -120q0 -35 17.5 -66t52.5 -59q69 -55 126 -89l63 -35l149 -88q193 -114 249.5 -200.5t56.5 -190.5q0 -164 -144 -297q92 -76 110.5 -136t18.5 -106q0 -94 -66.5 -187.5t-178.5 -140t-272 -46.5q-220 0 -422 71zM833 319q100 80 100 186 q0 72 -64.5 140.5t-148.5 116.5l-94 53l-184 105q-58 -66 -71 -106.5t-13 -77.5q0 -81 55 -143.5t253 -176.5z" />
<glyph unicode="&#xa8;" d="M397 1288q-51 0 -87.5 36t-36.5 88t37 88t87 36t87 -36t37 -88t-36.5 -88t-87.5 -36zM832 1288q-51 0 -88 36t-37 88t37.5 88t87.5 36t87 -36t37 -88t-37 -88t-87 -36z" />
<glyph unicode="&#xa9;" d="M615 -47q-194 0 -323 101t-209.5 291t-80.5 431q0 232 74.5 418t206 295t332.5 109q194 0 323.5 -102t209.5 -291t80 -429q0 -241 -80.5 -431t-209.5 -291t-323 -101zM615 78q128 0 240 80.5t180.5 252.5t68.5 365q0 192 -69 365t-181 253t-239 80q-130 0 -243.5 -83.5 t-179.5 -255t-66 -359.5q0 -195 70 -369t181 -251.5t238 -77.5zM894 433v-152q-90 -33 -214 -33q-131 0 -232.5 70.5t-161 190t-59.5 266.5q0 146 57.5 269t151 191t229.5 68q102 0 229 -32v-159q-38 12 -83 20t-79.5 12.5t-57.5 4.5q-127 0 -201.5 -103t-74.5 -273 q0 -187 87.5 -286t214.5 -99q82 0 194 45z" />
<glyph unicode="&#xaa;" d="M840 1060q-58 -76 -155 -122t-184 -46q-112 0 -201 73.5t-89 224.5q0 118 58.5 209.5t157 145t247.5 53.5q45 0 129 -5l36 -3h140v-476q0 -49 5.5 -94.5t41.5 -111.5h-155q-20 58 -31 152zM839 1208l-1 255q-78 11 -147 11q-136 0 -230.5 -72t-94.5 -201q0 -89 50 -133 t118 -44q72 0 159 52t146 132z" />
<glyph unicode="&#xab;" d="M626 481v155l384 419l113 -109l-312 -387l312 -399l-113 -98zM153 481v155l384 419l112 -109l-311 -387l311 -399l-112 -98z" />
<glyph unicode="&#xac;" d="M1157 621v-466h-155v310h-931v156h1086z" />
<glyph unicode="&#xad;" d="M227 551v155h776v-155h-776z" />
<glyph unicode="&#xae;" d="M615 -47q-194 0 -323 101t-209.5 291t-80.5 431q0 232 74.5 418t206 295t332.5 109q194 0 323.5 -102t209.5 -291t80 -429q0 -241 -80.5 -431t-209.5 -291t-323 -101zM615 78q128 0 240 80.5t180.5 252.5t68.5 365q0 192 -69 365t-181 253t-239 80q-130 0 -243.5 -83.5 t-179.5 -255t-66 -359.5q0 -195 70 -369t181 -251.5t238 -77.5zM494 718v-379h-139v914h220q176 0 238.5 -64.5t62.5 -146.5q0 -75 -42 -151.5t-132 -127.5l236 -424h-166l-196 379h-82zM494 829h116q64 36 95.5 82.5t31.5 104.5q0 59 -41.5 93t-156.5 34h-45v-314z" />
<glyph unicode="&#xaf;" d="M335 1288v124h559v-124h-559z" />
<glyph unicode="&#xb0;" d="M615 1055q-114 0 -193 80.5t-79 190.5q0 113 80.5 192.5t191.5 79.5t191 -79.5t80 -192.5q0 -110 -79 -190.5t-192 -80.5zM615 1148q75 0 126.5 54t51.5 124q0 73 -52.5 126t-125.5 53q-74 0 -126.5 -53t-52.5 -126q0 -70 51.5 -124t127.5 -54z" />
<glyph unicode="&#xb1;" d="M1157 931v-155h-465v-466h-156v466h-465v155h465v465h156v-465h465zM1157 155v-155h-1086v155h1086z" />
<glyph unicode="&#xb2;" d="M1088 0h-939v171q0 66 27 141.5t103 169.5t161 181l106 108q32 33 140 153t142.5 184t34.5 126q0 100 -80 154.5t-180 54.5q-57 0 -127.5 -13t-123.5 -30.5t-172 -71.5v165q126 60 252.5 82.5t208.5 22.5q121 0 222.5 -39.5t151 -122.5t49.5 -177q0 -105 -63.5 -215 t-239.5 -283l-114 -113l-96 -94q-91 -92 -147 -178t-62 -205h746v-171z" />
<glyph unicode="&#xb3;" d="M145 28v196q229 -116 397 -116q154 0 254.5 93.5t100.5 240.5q0 148 -110.5 241t-375.5 93h-103v155h143q195 0 282 87.5t87 194.5q0 97 -71 163.5t-218 66.5q-165 0 -355 -93v177q190 71 348 71q283 0 390.5 -111.5t107.5 -254.5q0 -106 -57 -199t-210 -166 q135 -40 204 -98t104.5 -137t35.5 -177q0 -218 -161.5 -360t-417.5 -142q-74 0 -161.5 11t-213.5 64z" />
<glyph unicode="&#xb4;" d="M320 1288l296 326h216l-342 -326h-170z" />
<glyph unicode="&#xb5;" d="M1076 1117v-1117h-186v242q-76 -142 -175 -207.5t-196 -65.5q-34 0 -71.5 8t-65.5 20.5t-74 49.5v-419h-186v1489h186v-649q0 -189 59 -263t147 -74t170.5 65.5t205.5 261.5v659h186z" />
<glyph unicode="&#xb6;" d="M552 -372v1055q-235 24 -350 150.5t-115 290.5q0 112 56 215t156.5 158t344.5 55h537v-156h-163v-1768h-155v1768h-155v-1768h-156z" />
<glyph unicode="&#xb8;" d="M685 0l-73 -131q107 -21 140 -65.5t33 -92.5q0 -55 -44 -100.5t-138 -45.5q-83 0 -159 28v89q58 -31 119 -31q35 0 63 21t28 44q0 68 -186 87l109 197h108z" />
<glyph unicode="&#xb9;" d="M568 155v1198q-84 -67 -163 -114t-217 -96v168q219 93 380 241h186v-1397h373v-155h-939v155h380z" />
<glyph unicode="&#xba;" d="M614 884q-218 0 -326 107t-108 250q0 144 108 250.5t326 106.5q219 0 327 -106.5t108 -250.5q0 -143 -108 -250t-327 -107zM614 1008q124 0 202 60t78 173t-78 173t-202 60q-123 0 -201 -60t-78 -173t78 -173t201 -60z" />
<glyph unicode="&#xbb;" d="M602 636v-155l-383 -419l-113 109l312 388l-312 398l113 98zM1076 636v-155l-384 -419l-113 109l312 388l-312 398l113 98z" />
<glyph unicode="&#xbc;" horiz-adv-x="3687" d="M3165 0v434h-659v156l659 962h187v-962h287v-156h-287v-434h-187zM3165 590v680l-461 -680h461zM1395 -47h-164l1061 1645h165zM568 155v1198q-84 -67 -163 -114t-217 -96v168q219 93 380 241h186v-1397h373v-155h-939v155h380z" />
<glyph unicode="&#xbd;" horiz-adv-x="3687" d="M3546 0h-939v171q0 66 27 141.5t103 169.5t161 181l106 108q32 33 140 153t142.5 184t34.5 126q0 100 -80 154.5t-180 54.5q-57 0 -127.5 -13t-123.5 -30.5t-172 -71.5v165q126 60 252.5 82.5t208.5 22.5q121 0 222.5 -39.5t151 -122.5t49.5 -177q0 -105 -63.5 -215 t-239.5 -283l-114 -113l-96 -94q-91 -92 -147 -178t-62 -205h746v-171zM1395 -47h-164l1061 1645h165zM568 155v1198q-84 -67 -163 -114t-217 -96v168q219 93 380 241h186v-1397h373v-155h-939v155h380z" />
<glyph unicode="&#xbe;" horiz-adv-x="3687" d="M3165 0v434h-659v156l659 962h187v-962h287v-156h-287v-434h-187zM3165 590v680l-461 -680h461zM1395 -47h-164l1061 1645h165zM145 28v196q229 -116 397 -116q154 0 254.5 93.5t100.5 240.5q0 148 -110.5 241t-375.5 93h-103v155h143q195 0 282 87.5t87 194.5 q0 97 -71 163.5t-218 66.5q-165 0 -355 -93v177q190 71 348 71q283 0 390.5 -111.5t107.5 -254.5q0 -106 -57 -199t-210 -166q135 -40 204 -98t104.5 -137t35.5 -177q0 -218 -161.5 -360t-417.5 -142q-74 0 -161.5 11t-213.5 64z" />
<glyph unicode="&#xbf;" d="M828 659v-35q0 -82 -14 -137.5t-54 -115t-119 -143.5l-62 -67q-17 -18 -52 -61l-66 -83q-83 -104 -83 -180q0 -70 60 -124t194 -54q87 0 178 23t212 91v-179q-186 -91 -388 -91q-224 0 -341 92t-117 237q0 144 151 300l67 68l77 80l72 73q39 45 68.5 101.5t29.5 158.5v46 h187zM725 853q-59 0 -101 42.5t-42 101.5t42 101t101 42q58 0 101 -41.5t43 -101.5t-43 -102t-101 -42z" />
<glyph unicode="&#xc0;" d="M227 0h-194l478 1552h205l481 -1552h-213l-106 341h-546zM380 496h453l-187 589l-44 156l-39 -156zM869 1722h-170l-342 326h216z" />
<glyph unicode="&#xc1;" d="M227 0h-194l478 1552h205l481 -1552h-213l-106 341h-546zM380 496h453l-187 589l-44 156l-39 -156zM357 1722l296 326h216l-342 -326h-170z" />
<glyph unicode="&#xc2;" d="M227 0h-194l478 1552h205l481 -1552h-213l-106 341h-546zM380 496h453l-187 589l-44 156l-39 -156zM615 1890l-140 -168h-155l233 326h124l233 -326h-156z" />
<glyph unicode="&#xc3;" d="M227 0h-194l478 1552h205l481 -1552h-213l-106 341h-546zM380 496h453l-187 589l-44 156l-39 -156zM422 1722h-125q0 132 51.5 194t129.5 62q62 0 126 -40l42 -25q83 -52 116 -52q60 0 60 117h127q-6 -102 -27 -149t-64.5 -77.5t-95.5 -30.5q-65 0 -141 49l-44 28l-24 17 q-34 23 -65 23q-22 0 -44 -23t-22 -93z" />
<glyph unicode="&#xc4;" d="M227 0h-194l478 1552h205l481 -1552h-213l-106 341h-546zM380 496h453l-187 589l-44 156l-39 -156zM397 1722q-51 0 -87.5 36t-36.5 88t37 88t87 36t87 -36t37 -88t-36.5 -88t-87.5 -36zM832 1722q-51 0 -88 36t-37 88t37.5 88t87.5 36t87 -36t37 -88t-37 -88t-87 -36z " />
<glyph unicode="&#xc5;" d="M716 1552l481 -1552h-213l-106 341h-546l-105 -341h-194l478 1552q-42 31 -63 69.5t-21 85.5q0 75 54.5 130.5t131.5 55.5t131.5 -55t54.5 -131q0 -46 -20.5 -85t-62.5 -70zM380 496h453l-187 589l-44 156l-39 -156zM520 1707q0 -38 27.5 -65.5t65.5 -27.5t65.5 27.5 t27.5 65.5t-27.5 65.5t-65.5 27.5t-65.5 -28t-27.5 -65z" />
<glyph unicode="&#xc6;" d="M638 0v372h-314l-152 -372h-170l636 1552h543v-156h-357v-535h342v-155h-342v-535h357v-171h-543zM381 512h257v622z" />
<glyph unicode="&#xc7;" d="M1088 1534v-184q-161 93 -320 93q-120 0 -219.5 -82t-160.5 -240.5t-61 -344.5q0 -189 63 -349t161 -239.5t217 -79.5q158 0 320 93v-183q-128 -46 -192 -56.5t-144 -10.5l-45 -82q107 -21 140 -65.5t33 -92.5q0 -55 -44 -100.5t-138 -45.5q-83 0 -159 28v89 q58 -31 119 -31q35 0 63 21t28 44q0 68 -186 87l88 160q-194 49 -309.5 164.5t-169.5 269t-54 357.5q0 403 187.5 624t470.5 221q138 0 312 -65z" />
<glyph unicode="&#xc8;" d="M1041 171v-171h-838v1552h822v-156h-620v-527h558v-155h-558v-543h636zM879 1722h-170l-342 326h216z" />
<glyph unicode="&#xc9;" d="M1041 171v-171h-838v1552h822v-156h-620v-527h558v-155h-558v-543h636zM367 1722l296 326h216l-342 -326h-170z" />
<glyph unicode="&#xca;" d="M1041 171v-171h-838v1552h822v-156h-620v-527h558v-155h-558v-543h636zM615 1890l-140 -168h-155l233 326h124l233 -326h-156z" />
<glyph unicode="&#xcb;" d="M1041 171v-171h-838v1552h822v-156h-620v-527h558v-155h-558v-543h636zM405 1722q-51 0 -87.5 36t-36.5 88t37 88t87 36t87 -36t37 -88t-36.5 -88t-87.5 -36zM840 1722q-51 0 -88 36t-37 88t37.5 88t87.5 36t87 -36t37 -88t-37 -88t-87 -36z" />
<glyph unicode="&#xcc;" d="M172 0v155h341v1241h-341v156h884v-156h-341v-1241h341v-155h-884zM871 1722h-170l-342 326h216z" />
<glyph unicode="&#xcd;" d="M172 0v155h341v1241h-341v156h884v-156h-341v-1241h341v-155h-884zM359 1722l296 326h216l-342 -326h-170z" />
<glyph unicode="&#xce;" d="M172 0v155h341v1241h-341v156h884v-156h-341v-1241h341v-155h-884zM615 1890l-140 -168h-155l233 326h124l233 -326h-156z" />
<glyph unicode="&#xcf;" d="M172 0v155h341v1241h-341v156h884v-156h-341v-1241h341v-155h-884zM397 1722q-51 0 -87.5 36t-36.5 88t37 88t87 36t87 -36t37 -88t-36.5 -88t-87.5 -36zM832 1722q-51 0 -88 36t-37 88t37.5 88t87.5 36t87 -36t37 -88t-37 -88t-87 -36z" />
<glyph unicode="&#xd1;" d="M312 0h-186v1552h182l549 -1033l60 -154h5l-5 154v1033h186v-1552h-186l-534 1016l-75 163l4 -161v-1018zM422 1722h-125q0 132 51.5 194t129.5 62q62 0 126 -40l42 -25q83 -52 116 -52q60 0 60 117h127q-6 -102 -27 -149t-64.5 -77.5t-95.5 -30.5q-65 0 -141 49l-44 28 l-24 17q-34 23 -65 23q-22 0 -44 -23t-22 -93z" />
<glyph unicode="&#xd2;" d="M614 -47q-264 0 -403.5 222.5t-139.5 600.5q0 377 139.5 599.5t403.5 222.5q265 0 404 -222.5t139 -599.5q0 -378 -139 -600.5t-404 -222.5zM614 109q146 0 243.5 165.5t97.5 501.5t-97.5 501.5t-243.5 165.5t-243.5 -165.5t-97.5 -501.5t97.5 -501.5t243.5 -165.5z M871 1722h-170l-342 326h216z" />
<glyph unicode="&#xd3;" d="M614 -47q-264 0 -403.5 222.5t-139.5 600.5q0 377 139.5 599.5t403.5 222.5q265 0 404 -222.5t139 -599.5q0 -378 -139 -600.5t-404 -222.5zM614 109q146 0 243.5 165.5t97.5 501.5t-97.5 501.5t-243.5 165.5t-243.5 -165.5t-97.5 -501.5t97.5 -501.5t243.5 -165.5z M359 1722l296 326h216l-342 -326h-170z" />
<glyph unicode="&#xd4;" d="M614 -47q-264 0 -403.5 222.5t-139.5 600.5q0 377 139.5 599.5t403.5 222.5q265 0 404 -222.5t139 -599.5q0 -378 -139 -600.5t-404 -222.5zM614 109q146 0 243.5 165.5t97.5 501.5t-97.5 501.5t-243.5 165.5t-243.5 -165.5t-97.5 -501.5t97.5 -501.5t243.5 -165.5z M615 1890l-140 -168h-155l233 326h124l233 -326h-156z" />
<glyph unicode="&#xd5;" d="M614 -47q-264 0 -403.5 222.5t-139.5 600.5q0 377 139.5 599.5t403.5 222.5q265 0 404 -222.5t139 -599.5q0 -378 -139 -600.5t-404 -222.5zM614 109q146 0 243.5 165.5t97.5 501.5t-97.5 501.5t-243.5 165.5t-243.5 -165.5t-97.5 -501.5t97.5 -501.5t243.5 -165.5z M414 1722h-125q0 132 51.5 194t129.5 62q62 0 126 -40l42 -25q83 -52 116 -52q60 0 60 117h127q-6 -102 -27 -149t-64.5 -77.5t-95.5 -30.5q-65 0 -141 49l-44 28l-24 17q-34 23 -65 23q-22 0 -44 -23t-22 -93z" />
<glyph unicode="&#xd6;" d="M614 -47q-264 0 -403.5 222.5t-139.5 600.5q0 377 139.5 599.5t403.5 222.5q265 0 404 -222.5t139 -599.5q0 -378 -139 -600.5t-404 -222.5zM614 109q146 0 243.5 165.5t97.5 501.5t-97.5 501.5t-243.5 165.5t-243.5 -165.5t-97.5 -501.5t97.5 -501.5t243.5 -165.5z M397 1722q-51 0 -87.5 36t-36.5 88t37 88t87 36t87 -36t37 -88t-36.5 -88t-87.5 -36zM832 1722q-51 0 -88 36t-37 88t37.5 88t87.5 36t87 -36t37 -88t-37 -88t-87 -36z" />
<glyph unicode="&#xd8;" d="M209 -109h-138l148 276q-63 100 -90 189.5t-42.5 198.5t-15.5 230q0 398 147.5 605.5t390.5 207.5q54 0 111.5 -11.5t102.5 -30.5t108 -68l93 172h133l-142 -273q61 -103 87 -185t40.5 -201.5t14.5 -235.5q0 -249 -66.5 -436t-180 -281.5t-306.5 -94.5q-82 0 -143.5 19 t-154.5 97zM321 360l525 969q-62 73 -119.5 93.5t-112.5 20.5q-154 0 -247.5 -174.5t-93.5 -479.5q0 -48 3 -146q3 -99 11.5 -150t33.5 -133zM911 1195l-521 -970q53 -66 108.5 -91t110.5 -25q174 0 260 184.5t86 483.5q0 52 -3 138t-10.5 140.5t-30.5 139.5z" />
<glyph unicode="&#xd9;" d="M126 1552h202v-1019q0 -201 33.5 -274.5t103 -112t154.5 -38.5q90 0 160.5 41.5t104 130t33.5 332.5v940h186v-1013q0 -217 -64.5 -339.5t-168.5 -184.5t-262 -62q-146 0 -257 54t-168 162t-57 390v993zM871 1722h-170l-342 326h216z" />
<glyph unicode="&#xda;" d="M126 1552h202v-1019q0 -201 33.5 -274.5t103 -112t154.5 -38.5q90 0 160.5 41.5t104 130t33.5 332.5v940h186v-1013q0 -217 -64.5 -339.5t-168.5 -184.5t-262 -62q-146 0 -257 54t-168 162t-57 390v993zM359 1722l296 326h216l-342 -326h-170z" />
<glyph unicode="&#xdb;" d="M126 1552h202v-1019q0 -201 33.5 -274.5t103 -112t154.5 -38.5q90 0 160.5 41.5t104 130t33.5 332.5v940h186v-1013q0 -217 -64.5 -339.5t-168.5 -184.5t-262 -62q-146 0 -257 54t-168 162t-57 390v993zM615 1890l-140 -168h-155l233 326h124l233 -326h-156z" />
<glyph unicode="&#xdc;" d="M126 1552h202v-1019q0 -201 33.5 -274.5t103 -112t154.5 -38.5q90 0 160.5 41.5t104 130t33.5 332.5v940h186v-1013q0 -217 -64.5 -339.5t-168.5 -184.5t-262 -62q-146 0 -257 54t-168 162t-57 390v993zM397 1722q-51 0 -87.5 36t-36.5 88t37 88t87 36t87 -36t37 -88 t-36.5 -88t-87.5 -36zM832 1722q-51 0 -88 36t-37 88t37.5 88t87.5 36t87 -36t37 -88t-37 -88t-87 -36z" />
<glyph unicode="&#xdd;" d="M530 1720l296 326h216l-342 -326h-170zM514 0v718l-462 834h229l345 -616l344 616h207l-461 -834v-718h-202z" />
<glyph unicode="&#xdf;" d="M130 0v1122q0 198 57.5 303.5t161 162.5t249.5 57q191 0 276.5 -89.5t85.5 -187.5q0 -62 -35 -121.5t-138 -148.5l-68 -58q-20 -17 -60 -55.5t-40 -78.5q0 -28 12 -48t71 -63l64 -47l126 -87q106 -72 176.5 -157t70.5 -200q0 -146 -113 -240.5t-289 -94.5q-38 0 -91 3.5 t-82.5 7.5t-84.5 20v185q60 -26 102 -36.5t84 -17.5t70 -7q50 0 105 18t83.5 58.5t28.5 82.5q0 62 -48.5 122t-162.5 136l-120 80q-92 62 -144 121.5t-52 133.5q0 55 29.5 108t130.5 146l59 55q48 44 81 87.5t33 90.5q0 65 -62 95.5t-122 30.5q-69 0 -127.5 -33.5 t-94.5 -102t-36 -231.5v-1122h-186z" />
<glyph unicode="&#xe0;" d="M889 251q-85 -140 -204.5 -211t-219.5 -71q-140 0 -251.5 121t-111.5 367q0 194 74 346.5t198 241t307 88.5q53 0 160 -11q16 -2 48 -5h187v-789q0 -202 42 -328h-194q-22 92 -35 251zM889 472v479q-99 26 -184 26q-172 0 -286.5 -133t-114.5 -362q0 -166 62.5 -250.5 t142.5 -84.5q87 0 192 88t188 237zM898 1288h-170l-342 326h216z" />
<glyph unicode="&#xe1;" d="M889 251q-85 -140 -204.5 -211t-219.5 -71q-140 0 -251.5 121t-111.5 367q0 194 74 346.5t198 241t307 88.5q53 0 160 -11q16 -2 48 -5h187v-789q0 -202 42 -328h-194q-22 92 -35 251zM889 472v479q-99 26 -184 26q-172 0 -286.5 -133t-114.5 -362q0 -166 62.5 -250.5 t142.5 -84.5q87 0 192 88t188 237zM480 1288l296 326h216l-342 -326h-170z" />
<glyph unicode="&#xe2;" d="M889 251q-85 -140 -204.5 -211t-219.5 -71q-140 0 -251.5 121t-111.5 367q0 194 74 346.5t198 241t307 88.5q53 0 160 -11q16 -2 48 -5h187v-789q0 -202 42 -328h-194q-22 92 -35 251zM889 472v479q-99 26 -184 26q-172 0 -286.5 -133t-114.5 -362q0 -166 62.5 -250.5 t142.5 -84.5q87 0 192 88t188 237zM703 1456l-140 -168h-155l233 326h124l233 -326h-156z" />
<glyph unicode="&#xe3;" d="M889 251q-85 -140 -204.5 -211t-219.5 -71q-140 0 -251.5 121t-111.5 367q0 194 74 346.5t198 241t307 88.5q53 0 160 -11q16 -2 48 -5h187v-789q0 -202 42 -328h-194q-22 92 -35 251zM889 472v479q-99 26 -184 26q-172 0 -286.5 -133t-114.5 -362q0 -166 62.5 -250.5 t142.5 -84.5q87 0 192 88t188 237zM457 1288h-125q0 132 51.5 194t129.5 62q62 0 126 -40l42 -25q83 -52 116 -52q60 0 60 117h127q-6 -102 -27 -149t-64.5 -77.5t-95.5 -30.5q-65 0 -141 49l-44 28l-24 17q-34 23 -65 23q-22 0 -44 -23t-22 -93z" />
<glyph unicode="&#xe4;" d="M889 251q-85 -140 -204.5 -211t-219.5 -71q-140 0 -251.5 121t-111.5 367q0 194 74 346.5t198 241t307 88.5q53 0 160 -11q16 -2 48 -5h187v-789q0 -202 42 -328h-194q-22 92 -35 251zM889 472v479q-99 26 -184 26q-172 0 -286.5 -133t-114.5 -362q0 -166 62.5 -250.5 t142.5 -84.5q87 0 192 88t188 237zM454 1288q-51 0 -87.5 36t-36.5 88t37 88t87 36t87 -36t37 -88t-36.5 -88t-87.5 -36zM889 1288q-51 0 -88 36t-37 88t37.5 88t87.5 36t87 -36t37 -88t-37 -88t-87 -36z" />
<glyph unicode="&#xe5;" d="M889 251q-85 -140 -204.5 -211t-219.5 -71q-140 0 -251.5 121t-111.5 367q0 194 74 346.5t198 241t307 88.5q53 0 160 -11q16 -2 48 -5h187v-789q0 -202 42 -328h-194q-22 92 -35 251zM889 472v479q-99 26 -184 26q-172 0 -286.5 -133t-114.5 -362q0 -166 62.5 -250.5 t142.5 -84.5q87 0 192 88t188 237zM657 1381q39 0 66 27.5t27 65.5t-27 65.5t-66 27.5q-38 0 -65.5 -27.5t-27.5 -65.5t27.5 -65.5t65.5 -27.5zM657 1288q-78 0 -132 56t-54 130q0 75 54.5 130.5t131.5 55.5q78 0 132 -55.5t54 -130.5q0 -74 -54 -130t-132 -56z" />
<glyph unicode="&#xe6;" d="M592 226q-52 -130 -120 -193.5t-132 -63.5q-112 0 -194 144t-82 370q0 200 55.5 349.5t148 232.5t198.5 83q35 0 74.5 -7.5t71 -19t79.5 -44.5q73 54 113 62.5t71 8.5q127 0 209 -113.5t82 -449.5v-50h-404v-83q0 -148 22.5 -208.5t64.5 -90t94 -29.5q101 0 223 79v-170 q-141 -64 -254 -64q-74 0 -136 25.5t-107.5 76.5t-76.5 155zM576 470v489q-24 17 -47 25.5t-45 8.5q-117 0 -175.5 -165t-58.5 -365q0 -118 33 -203q32 -82 80 -82h4q105 7 209 292zM762 667h217v32q0 176 -27 235t-79 59q-55 0 -83 -73.5t-28 -220.5v-32z" />
<glyph unicode="&#xe7;" d="M702 -131q108 -21 141 -65.5t33 -92.5q0 -55 -44.5 -100.5t-137.5 -45.5q-83 0 -159 28v89q58 -31 118 -31q36 0 63.5 21t27.5 44q0 68 -185 87l93 169q-165 28 -272 112t-161.5 196.5t-54.5 266.5q0 272 169 436.5t396 164.5q173 0 366 -65v-179q-195 89 -349 89 q-102 0 -192 -50.5t-139 -157.5t-49 -220q0 -151 94.5 -288t296.5 -137q61 0 120 8.5t218 62.5v-179q-156 -56 -338 -66z" />
<glyph unicode="&#xe8;" d="M1084 74q-223 -106 -422 -106q-151 0 -270 75t-190.5 214.5t-71.5 298.5q0 153 68 294t190 219.5t272 78.5q199 0 319.5 -142t120.5 -438v-40h-770q0 -116 48.5 -212t127.5 -144t180 -48q180 0 398 120v-170zM341 667h557v27q0 137 -67 218t-179 81q-113 0 -195.5 -82.5 t-115.5 -243.5zM910 1288h-170l-342 326h216z" />
<glyph unicode="&#xe9;" d="M1084 74q-223 -106 -422 -106q-151 0 -270 75t-190.5 214.5t-71.5 298.5q0 153 68 294t190 219.5t272 78.5q199 0 319.5 -142t120.5 -438v-40h-770q0 -116 48.5 -212t127.5 -144t180 -48q180 0 398 120v-170zM341 667h557v27q0 137 -67 218t-179 81q-113 0 -195.5 -82.5 t-115.5 -243.5zM445 1288l296 326h216l-342 -326h-170z" />
<glyph unicode="&#xea;" d="M1084 74q-223 -106 -422 -106q-151 0 -270 75t-190.5 214.5t-71.5 298.5q0 153 68 294t190 219.5t272 78.5q199 0 319.5 -142t120.5 -438v-40h-770q0 -116 48.5 -212t127.5 -144t180 -48q180 0 398 120v-170zM341 667h557v27q0 137 -67 218t-179 81q-113 0 -195.5 -82.5 t-115.5 -243.5zM654 1456l-140 -168h-155l233 326h124l233 -326h-156z" />
<glyph unicode="&#xeb;" d="M1084 74q-223 -106 -422 -106q-151 0 -270 75t-190.5 214.5t-71.5 298.5q0 153 68 294t190 219.5t272 78.5q199 0 319.5 -142t120.5 -438v-40h-770q0 -116 48.5 -212t127.5 -144t180 -48q180 0 398 120v-170zM341 667h557v27q0 137 -67 218t-179 81q-113 0 -195.5 -82.5 t-115.5 -243.5zM450 1288q-51 0 -87.5 36t-36.5 88t37 88t87 36t87 -36t37 -88t-36.5 -88t-87.5 -36zM885 1288q-51 0 -88 36t-37 88t37.5 88t87.5 36t87 -36t37 -88t-37 -88t-87 -36z" />
<glyph unicode="&#xec;" d="M467 0v962h-310v155h496v-962h311v-155h-497zM816 1288h-170l-342 326h216z" />
<glyph unicode="&#xed;" d="M467 0v962h-310v155h496v-962h311v-155h-497zM304 1288l296 326h216l-342 -326h-170z" />
<glyph unicode="&#xee;" d="M467 0v962h-310v155h496v-962h311v-155h-497zM562 1456l-140 -168h-155l233 326h124l233 -326h-156z" />
<glyph unicode="&#xef;" d="M467 0v962h-310v155h496v-962h311v-155h-497zM344 1288q-51 0 -87.5 36t-36.5 88t37 88t87 36t87 -36t37 -88t-36.5 -88t-87.5 -36zM779 1288q-51 0 -88 36t-37 88t37.5 88t87.5 36t87 -36t37 -88t-37 -88t-87 -36z" />
<glyph unicode="&#xf1;" d="M157 0v1117h186v-244q80 129 193 202t226 73q99 0 180 -52.5t113.5 -137.5t32.5 -334v-624h-186v647q0 161 -15.5 212.5t-57 84.5t-90.5 33q-98 0 -210.5 -93t-185.5 -233v-651h-186zM430 1288h-125q0 132 51.5 194t129.5 62q62 0 126 -40l42 -25q83 -52 116 -52 q60 0 60 117h127q-6 -102 -27 -149t-64.5 -77.5t-95.5 -30.5q-65 0 -141 49l-44 28l-24 17q-34 23 -65 23q-22 0 -44 -23t-22 -93z" />
<glyph unicode="&#xf2;" d="M615 -31q-240 0 -384 167.5t-144 422.5t144 422t384 167q239 0 383 -167t144 -422t-144 -422.5t-383 -167.5zM615 124q149 0 237 116t88 319q0 202 -88 318t-237 116q-150 0 -238 -116t-88 -318q0 -203 88 -319t238 -116zM871 1288h-170l-342 326h216z" />
<glyph unicode="&#xf3;" d="M615 -31q-240 0 -384 167.5t-144 422.5t144 422t384 167q239 0 383 -167t144 -422t-144 -422.5t-383 -167.5zM615 124q149 0 237 116t88 319q0 202 -88 318t-237 116q-150 0 -238 -116t-88 -318q0 -203 88 -319t238 -116zM359 1288l296 326h216l-342 -326h-170z" />
<glyph unicode="&#xf4;" d="M615 -31q-240 0 -384 167.5t-144 422.5t144 422t384 167q239 0 383 -167t144 -422t-144 -422.5t-383 -167.5zM615 124q149 0 237 116t88 319q0 202 -88 318t-237 116q-150 0 -238 -116t-88 -318q0 -203 88 -319t238 -116zM615 1456l-140 -168h-155l233 326h124l233 -326 h-156z" />
<glyph unicode="&#xf5;" d="M615 -31q-240 0 -384 167.5t-144 422.5t144 422t384 167q239 0 383 -167t144 -422t-144 -422.5t-383 -167.5zM615 124q149 0 237 116t88 319q0 202 -88 318t-237 116q-150 0 -238 -116t-88 -318q0 -203 88 -319t238 -116zM414 1288h-125q0 132 51.5 194t129.5 62 q62 0 126 -40l42 -25q83 -52 116 -52q60 0 60 117h127q-6 -102 -27 -149t-64.5 -77.5t-95.5 -30.5q-65 0 -141 49l-44 28l-24 17q-34 23 -65 23q-22 0 -44 -23t-22 -93z" />
<glyph unicode="&#xf6;" d="M615 -31q-240 0 -384 167.5t-144 422.5t144 422t384 167q239 0 383 -167t144 -422t-144 -422.5t-383 -167.5zM615 124q149 0 237 116t88 319q0 202 -88 318t-237 116q-150 0 -238 -116t-88 -318q0 -203 88 -319t238 -116zM397 1288q-51 0 -87.5 36t-36.5 88t37 88t87 36 t87 -36t37 -88t-36.5 -88t-87.5 -36zM832 1288q-51 0 -88 36t-37 88t37.5 88t87.5 36t87 -36t37 -88t-37 -88t-87 -36z" />
<glyph unicode="&#xf7;" d="M614 776q-57 0 -100 43t-43 100q0 58 43 101t100 43t100.5 -43t43.5 -101q0 -57 -43.5 -100t-100.5 -43zM1157 621v-156h-1086v156h1086zM614 23q-57 0 -100 43t-43 101t43 100.5t100 42.5t100.5 -42.5t43.5 -100.5t-43.5 -101t-100.5 -43z" />
<glyph unicode="&#xf8;" d="M236 -93h-149l150 221q-150 189 -150 436q0 243 135 413.5t391 170.5q50 0 100 -7t89.5 -20t95.5 -46l94 135h150l-149 -215q149 -193 149 -436q0 -237 -132 -413.5t-396 -176.5q-63 0 -123.5 10.5t-158.5 64.5zM341 280l464 663q-89 50 -190 50q-159 0 -242.5 -115.5 t-83.5 -313.5q0 -150 52 -284zM889 845l-465 -668q96 -53 181 -53q183 0 259 122.5t76 307.5q0 160 -51 291z" />
<glyph unicode="&#xf9;" d="M1074 1117v-1117h-186v245q-90 -138 -200 -207t-220 -69q-98 0 -179.5 52.5t-113.5 138t-32 333.5v624h186v-647q0 -161 15.5 -212.5t57 -84.5t89.5 -33q98 0 210.5 92.5t186.5 233.5v651h186zM873 1288h-170l-342 326h216z" />
<glyph unicode="&#xfa;" d="M1074 1117v-1117h-186v245q-90 -138 -200 -207t-220 -69q-98 0 -179.5 52.5t-113.5 138t-32 333.5v624h186v-647q0 -161 15.5 -212.5t57 -84.5t89.5 -33q98 0 210.5 92.5t186.5 233.5v651h186zM406 1288l296 326h216l-342 -326h-170z" />
<glyph unicode="&#xfb;" d="M1074 1117v-1117h-186v245q-90 -138 -200 -207t-220 -69q-98 0 -179.5 52.5t-113.5 138t-32 333.5v624h186v-647q0 -161 15.5 -212.5t57 -84.5t89.5 -33q98 0 210.5 92.5t186.5 233.5v651h186zM617 1456l-140 -168h-155l233 326h124l233 -326h-156z" />
<glyph unicode="&#xfc;" d="M1074 1117v-1117h-186v245q-90 -138 -200 -207t-220 -69q-98 0 -179.5 52.5t-113.5 138t-32 333.5v624h186v-647q0 -161 15.5 -212.5t57 -84.5t89.5 -33q98 0 210.5 92.5t186.5 233.5v651h186zM399 1288q-51 0 -87.5 36t-36.5 88t37 88t87 36t87 -36t37 -88t-36.5 -88 t-87.5 -36zM834 1288q-51 0 -88 36t-37 88t37.5 88t87.5 36t87 -36t37 -88t-37 -88t-87 -36z" />
<glyph unicode="&#xfd;" d="M538 1270l296 326h216l-342 -326h-170zM566 45l-516 1072h205l411 -838l344 838h187l-433 -1038q-137 -329 -260.5 -437t-319.5 -108q-85 0 -152 15v164q77 -24 147 -24q90 0 160 35t128 124t82 154z" />
<glyph unicode="&#xff;" d="M582 45l-516 1072h205l411 -838l344 838h187l-433 -1038q-137 -329 -260.5 -437t-319.5 -108q-85 0 -152 15v164q77 -24 147 -24q90 0 160 35t128 124t82 154zM444 1288q-51 0 -87.5 36t-36.5 88t37 88t87 36t87 -36t37 -88t-36.5 -88t-87.5 -36zM879 1288q-51 0 -88 36 t-37 88t37.5 88t87.5 36t87 -36t37 -88t-37 -88t-87 -36z" />
<glyph unicode="&#x131;" d="M467 0v962h-310v155h496v-962h311v-155h-497z" />
<glyph unicode="&#x152;" d="M1184 0h-551v39q-68 -60 -103.5 -65.5t-53.5 -5.5q-115 0 -221.5 94t-162.5 293.5t-56 439.5q0 252 61.5 438.5t164.5 268t217 81.5q33 0 68 -10t86 -60v39h536v-156h-349v-535h333v-155h-333v-535h364v-171zM633 521v501q0 265 -37.5 335.5t-109.5 70.5 q-131 0 -189.5 -184.5t-58.5 -463.5q0 -248 55.5 -452t196.5 -204q70 0 106.5 70.5t36.5 326.5z" />
<glyph unicode="&#x153;" d="M625 135q-59 -111 -124.5 -138.5t-119.5 -27.5q-88 0 -159 63t-113 208.5t-42 329.5q0 217 76.5 397.5t258.5 180.5q80 0 139 -41.5t98 -124.5q44 83 103 124.5t133 41.5q119 0 202.5 -112.5t83.5 -438.5v-62h-404v-61q0 -178 24.5 -236.5t67 -86t92.5 -27.5 q103 0 220 78v-173q-141 -60 -251 -60q-85 0 -155.5 32.5t-129.5 133.5zM571 493v102q0 127 -6.5 178t-24.5 101.5t-52 86.5q-32 32 -70 32h-6q-85 -5 -126 -129t-41 -320q0 -166 39.5 -293t131.5 -127q67 0 111 86t44 283zM757 667h218v33q0 185 -30 239t-77 54 q-48 0 -79.5 -69.5t-31.5 -222.5v-34z" />
<glyph unicode="&#x178;" d="M514 0v718l-462 834h229l345 -616l344 616h207l-461 -834v-718h-202zM397 1722q-51 0 -87.5 36t-36.5 88t37 88t87 36t87 -36t37 -88t-36.5 -88t-87.5 -36zM832 1722q-51 0 -88 36t-37 88t37.5 88t87.5 36t87 -36t37 -88t-37 -88t-87 -36z" />
<glyph unicode="&#x2c6;" d="M615 1456l-140 -168h-155l233 326h124l233 -326h-156z" />
<glyph unicode="&#x2da;" d="M614 1381q39 0 66 27.5t27 65.5t-27 65.5t-66 27.5q-38 0 -65.5 -27.5t-27.5 -65.5t27.5 -65.5t65.5 -27.5zM614 1288q-78 0 -132 56t-54 130q0 75 54.5 130.5t131.5 55.5q78 0 132 -55.5t54 -130.5q0 -74 -54 -130t-132 -56z" />
<glyph unicode="&#x2dc;" d="M414 1288h-125q0 132 51.5 194t129.5 62q62 0 126 -40l42 -25q83 -52 116 -52q60 0 60 117h127q-6 -102 -27 -149t-64.5 -77.5t-95.5 -30.5q-65 0 -141 49l-44 28l-24 17q-34 23 -65 23q-22 0 -44 -23t-22 -93z" />
<glyph unicode="&#x2000;" horiz-adv-x="1024" />
<glyph unicode="&#x2001;" horiz-adv-x="2048" />
<glyph unicode="&#x2002;" horiz-adv-x="1024" />
<glyph unicode="&#x2003;" horiz-adv-x="2048" />
<glyph unicode="&#x2004;" horiz-adv-x="682" />
<glyph unicode="&#x2005;" horiz-adv-x="512" />
<glyph unicode="&#x2006;" horiz-adv-x="341" />
<glyph unicode="&#x2007;" horiz-adv-x="341" />
<glyph unicode="&#x2008;" horiz-adv-x="256" />
<glyph unicode="&#x2009;" horiz-adv-x="409" />
<glyph unicode="&#x200a;" horiz-adv-x="113" />
<glyph unicode="&#x2010;" d="M227 551v155h776v-155h-776z" />
<glyph unicode="&#x2011;" d="M227 551v155h776v-155h-776z" />
<glyph unicode="&#x2012;" d="M227 551v155h776v-155h-776z" />
<glyph unicode="&#x2013;" d="M71 528v155h1086v-155h-1086z" />
<glyph unicode="&#x2014;" d="M71 528v124h1086v-124h-1086z" />
<glyph unicode="&#x2018;" d="M804 1645v-125q-72 -19 -109.5 -54t-60 -89.5t-22.5 -132.5q93 0 137 -52.5t44 -111.5q0 -70 -49 -117.5t-114 -47.5q-84 0 -145 72.5t-61 198.5q0 111 48 208t130.5 166t201.5 85z" />
<glyph unicode="&#x2019;" d="M424 915v125q72 19 109.5 54t60 89.5t22.5 132.5q-93 0 -137 52.5t-44 111.5q0 70 49 117.5t114 47.5q84 0 145 -72.5t61 -198.5q0 -111 -48 -208t-130.5 -166t-201.5 -85z" />
<glyph unicode="&#x201a;" d="M424 -434v124q72 19 109.5 54.5t57 82.5t25.5 139q-93 0 -137 52.5t-44 112.5q0 69 49 116.5t114 47.5q84 0 145 -72.5t61 -198.5q0 -110 -48 -207.5t-130.5 -166.5t-201.5 -84z" />
<glyph unicode="&#x201c;" d="M1049 1645v-125q-72 -19 -109.5 -54t-60 -89.5t-22.5 -132.5q92 0 136.5 -52.5t44.5 -111.5q0 -70 -49 -117.5t-114 -47.5q-85 0 -145.5 72.5t-60.5 198.5q0 111 48 208t130.5 166t201.5 85zM560 1645v-125q-72 -19 -109.5 -54t-60 -89.5t-22.5 -132.5q93 0 137 -52.5 t44 -111.5q0 -70 -49 -117.5t-114 -47.5q-84 0 -145 72.5t-61 198.5q0 111 48 208t130.5 166t201.5 85z" />
<glyph unicode="&#x201d;" d="M180 915v125q72 19 109.5 54t60 89.5t22.5 132.5q-93 0 -137 52.5t-44 111.5q0 70 49 117.5t114 47.5q84 0 145 -72.5t61 -198.5q0 -111 -48 -208t-130.5 -166t-201.5 -85zM669 915v125q71 19 109 54t60.5 89.5t22.5 132.5q-93 0 -137 52.5t-44 111.5q0 70 48.5 117.5 t113.5 47.5q85 0 146 -72.5t61 -198.5q0 -111 -48 -208t-130.5 -166t-201.5 -85z" />
<glyph unicode="&#x201e;" d="M180 -434v124q72 19 109.5 54.5t57 82.5t25.5 139q-93 0 -137 52.5t-44 112.5q0 69 49 116.5t114 47.5q84 0 145 -72.5t61 -198.5q0 -110 -48 -207.5t-130.5 -166.5t-201.5 -84zM669 -434v124q71 19 109 54.5t57.5 82.5t25.5 139q-93 0 -137 52.5t-44 112.5 q0 69 48.5 116.5t113.5 47.5q85 0 146 -72.5t61 -198.5q0 -110 -48 -207.5t-130.5 -166.5t-201.5 -84z" />
<glyph unicode="&#x2022;" d="M615 341q-113 0 -211 55t-157 155t-59 217q0 114 57 213.5t157 156.5t213 57q112 0 212 -57t157 -156.5t57 -213.5q0 -117 -59 -217t-157 -155t-210 -55z" />
<glyph unicode="&#x2026;" d="M205 -47q-57 0 -100.5 43t-43.5 101t43.5 100.5t100.5 42.5q56 0 99.5 -42.5t43.5 -100.5t-43.5 -101t-99.5 -43zM614 -47q-57 0 -100 43t-43 101t43 100.5t100 42.5t100.5 -42.5t43.5 -100.5t-43.5 -101t-100.5 -43zM1024 -47q-57 0 -100.5 43t-43.5 101t43.5 100.5 t100.5 42.5t100 -42.5t43 -100.5t-43 -101t-100 -43z" />
<glyph unicode="&#x202f;" horiz-adv-x="409" />
<glyph unicode="&#x2039;" d="M331 484v160l501 473l112 -118l-429 -438l429 -446l-112 -115z" />
<glyph unicode="&#x203a;" d="M898 633v-160l-501 -473l-112 118l429 438l-429 446l112 115z" />
<glyph unicode="&#x2044;" d="M166 -47h-164l1061 1645h165z" />
<glyph unicode="&#x205f;" horiz-adv-x="512" />
<glyph unicode="&#x2122;" d="M225 776v663h-223v113h575v-113h-224v-663h-128zM744 1254v-478h-106v776h125l170 -464l172 464h123v-776h-121v477l-121 -328h-119z" />
<glyph unicode="&#xe000;" horiz-adv-x="1115" d="M0 1115h1115v-1115h-1115v1115z" />
<glyph unicode="&#xfb01;" horiz-adv-x="2458" d="M1697 0v962h-310v155h496v-962h311v-155h-497zM1666 1520q0 63 43 94t81 31q39 0 82 -31t43 -94q0 -62 -43 -93t-82 -31q-38 0 -81 31t-43 93zM415 0v869h-248v155h248v52q0 221 50 327t154.5 174t276.5 68q130 0 264 -27v-177q-145 48 -257 48q-89 0 -157 -33 t-106.5 -107.5t-38.5 -252.5v-72h443v-155h-443v-869h-186z" />
<glyph unicode="&#xfb02;" horiz-adv-x="2458" d="M1684 0v1458h-334v156h520v-1459h349v-155h-535zM415 0v869h-248v155h248v52q0 221 50 327t154.5 174t276.5 68q130 0 264 -27v-177q-145 48 -257 48q-89 0 -157 -33t-106.5 -107.5t-38.5 -252.5v-72h443v-155h-443v-869h-186z" />
<glyph unicode="&#xfb03;" horiz-adv-x="3687" d="M2926 0v962h-310v155h496v-962h311v-155h-497zM2895 1520q0 63 43 94t81 31q39 0 82 -31t43 -94q0 -62 -43 -93t-82 -31q-38 0 -81 31t-43 93zM1644 0v869h-248v155h248v52q0 221 50 327t154.5 174t276.5 68q130 0 264 -27v-177q-145 48 -257 48q-89 0 -157 -33 t-106.5 -107.5t-38.5 -252.5v-72h443v-155h-443v-869h-186zM415 0v869h-248v155h248v52q0 221 50 327t154.5 174t276.5 68q130 0 264 -27v-177q-145 48 -257 48q-89 0 -157 -33t-106.5 -107.5t-38.5 -252.5v-72h443v-155h-443v-869h-186z" />
<glyph unicode="&#xfb04;" horiz-adv-x="3687" d="M2913 0v1458h-334v156h520v-1459h349v-155h-535zM1644 0v869h-248v155h248v52q0 221 50 327t154.5 174t276.5 68q130 0 264 -27v-177q-145 48 -257 48q-89 0 -157 -33t-106.5 -107.5t-38.5 -252.5v-72h443v-155h-443v-869h-186zM415 0v869h-248v155h248v52q0 221 50 327 t154.5 174t276.5 68q130 0 264 -27v-177q-145 48 -257 48q-89 0 -157 -33t-106.5 -107.5t-38.5 -252.5v-72h443v-155h-443v-869h-186z" />
</font>
</defs>
</svg>
